<?xml version="1.0" standalone="no"?>
<!DOCTYPE svg PUBLIC "-//W3C//DTD SVG 1.1//EN" "https://www.w3.org/Graphics/SVG/1.1/DTD/svg11.dtd" >
<svg xmlns="https://www.w3.org/2000/svg">
<metadata></metadata>
<defs>
<font id="TitilliumLtBold" horiz-adv-x="1146" >
<font-face units-per-em="2048" ascent="1536" descent="-512" />
<missing-glyph horiz-adv-x="450" />
<glyph horiz-adv-x="0" />
<glyph horiz-adv-x="2048" />
<glyph unicode=" "  horiz-adv-x="450" />
<glyph unicode="&#x09;" horiz-adv-x="450" />
<glyph unicode="&#xa0;" horiz-adv-x="450" />
<glyph unicode="!" horiz-adv-x="489" d="M178 0v205h135v-205h-135zM180 1423h129l-8 -966h-115z" />
<glyph unicode="&#x22;" horiz-adv-x="745" d="M141 1423h127l-8 -446h-110zM477 1423h127l-8 -446h-113z" />
<glyph unicode="#" d="M53 369v106h234v412h-234v106h234v373h114v-373h342v373h115v-373h234v-106h-234v-412h234v-106h-234v-369h-115v369h-342v-369h-114v369h-234zM401 475h342v412h-342v-412z" />
<glyph unicode="$" d="M147 1018q0 354 428 354q36 0 56 -2l33 258h92l-35 -264q57 -4 120 -11.5t97 -12.5l35 -5l-8 -104q-139 16 -258 26l-66 -514q98 -20 161 -44t111 -63.5t69.5 -98t21.5 -142.5q0 -218 -108 -314.5t-316 -96.5h-35l-31 -236q-92 6 -92 14l29 228q-63 4 -136 11.5 t-115 12.5l-42 6l14 105q158 -21 293 -29l72 549q-69 14 -117.5 27.5t-96 34t-77.5 47.5t-54 64t-34.5 86.5t-10.5 113.5zM270 1026q0 -68 15 -112t53 -73t85 -45.5t128 -33.5l65 502h-32q-314 0 -314 -238zM559 92h16q155 0 230.5 70.5t75.5 224.5q0 110 -56 160t-198 80z " />
<glyph unicode="%" d="M66 1094q0 278 219 278q104 0 161.5 -68.5t57.5 -211.5t-58.5 -215t-160.5 -72q-103 0 -161 72t-58 217zM170 1094q0 -100 27 -149.5t88 -49.5q63 0 89.5 48.5t26.5 148.5q0 98 -26.5 144t-89.5 46q-62 0 -88.5 -46t-26.5 -142zM332 -6l405 1390l86 -26l-405 -1389z M643 268q0 142 57.5 210.5t161.5 68.5t162.5 -69t58.5 -212t-59 -214.5t-162 -71.5t-161 71.5t-58 216.5zM748 268q0 -100 26.5 -149t87.5 -49q63 0 90 48.5t27 147.5t-27 145t-90 46q-62 0 -88 -45.5t-26 -143.5z" />
<glyph unicode="&#x26;" horiz-adv-x="1402" d="M90 420q0 92 19 159t61 114.5t99.5 79t144.5 58.5q-70 80 -91.5 143t-21.5 159q0 135 89 216t251 81q170 0 255 -81.5t85 -224.5q0 -98 -35.5 -167.5t-103 -118t-185.5 -97.5l336 -333q20 54 39.5 162t24.5 188l121 -2q-11 -108 -37.5 -232.5t-55.5 -195.5l273 -260 l-76 -84l-256 243q-137 -247 -444 -247q-138 0 -234.5 30t-152.5 89t-80.5 137t-24.5 184zM213 426q0 -167 85 -250.5t277 -83.5q260 0 365 211l-453 449q-151 -44 -212.5 -115t-61.5 -211zM424 1116q0 -68 19.5 -124t72.5 -109l64 -66q155 61 215.5 123.5t60.5 177.5 q0 205 -215 205q-105 0 -161 -52.5t-56 -154.5z" />
<glyph unicode="'" horiz-adv-x="409" d="M141 1423h129l-12 -446h-111z" />
<glyph unicode="(" horiz-adv-x="516" d="M111 616q0 120 21 259t51.5 251.5t61 208t51.5 148.5l21 53h119q-8 -22 -21 -60t-46.5 -150t-59 -218.5t-46.5 -244.5t-21 -247q0 -108 20 -238t48.5 -237.5t57 -199.5t48.5 -145l20 -52h-119q-8 18 -22 50.5t-49.5 132t-62.5 198t-49.5 235t-22.5 256.5z" />
<glyph unicode=")" horiz-adv-x="516" d="M82 -256q8 20 21 55t46.5 139.5t59 204.5t46.5 232.5t21 240.5q0 109 -20 244.5t-48.5 250t-57 213t-48.5 155.5l-20 57h119q8 -20 22 -55.5t50 -143.5t63 -213t49.5 -246.5t22.5 -261.5t-21.5 -254.5t-52 -239.5t-60.5 -193.5t-52 -136.5l-21 -48h-119z" />
<glyph unicode="*" horiz-adv-x="858" d="M119 938l223 162l-221 162l55 73l221 -161l84 260l88 -29l-84 -262h271v-90h-275l84 -260l-86 -27l-86 262l-221 -162z" />
<glyph unicode="+" d="M117 457v114h395v412h117v-412h401v-114h-401v-416h-117v416h-395z" />
<glyph unicode="," horiz-adv-x="436" d="M78 -252l90 455h137l-125 -455h-102z" />
<glyph unicode="-" horiz-adv-x="911" d="M145 510v115h623v-115h-623z" />
<glyph unicode="." horiz-adv-x="421" d="M143 0v207h136v-207h-136z" />
<glyph unicode="/" horiz-adv-x="815" d="M66 23l573 1423l111 -43l-572 -1421z" />
<glyph unicode="0" d="M88 651q0 168 21.5 292.5t60.5 206.5t100 131.5t133.5 70t167.5 20.5q98 0 172 -20.5t135 -70t99 -131.5t59 -206.5t21 -292.5q0 -191 -32.5 -323t-97.5 -207.5t-150.5 -108t-203.5 -32.5q-95 0 -167.5 19.5t-133.5 66t-100.5 122.5t-61.5 192t-22 271zM219 649 q0 -132 15.5 -229t44 -159.5t73.5 -99.5t97.5 -52t123.5 -15t123.5 15t97.5 52.5t73 100.5t43.5 160t15.5 229q0 179 -21 297.5t-66.5 187.5t-109 96.5t-158.5 27.5q-93 0 -155.5 -27t-108.5 -95t-67 -187.5t-21 -301.5z" />
<glyph unicode="1" d="M236 1069l426 283h118v-1352h-125v1212l-360 -241z" />
<glyph unicode="2" d="M143 0v106l422 447q63 66 93.5 99.5t72 85t59.5 88t32 84t14 96.5q0 137 -77 194t-237 57q-68 0 -157 -12.5t-144 -24.5l-55 -12l-10 109q22 6 59 15t139 24.5t189 15.5q214 0 319 -84.5t105 -271.5q0 -75 -16.5 -137.5t-55.5 -123.5t-84 -112.5t-121 -126.5l-393 -405 h709v-111h-863z" />
<glyph unicode="3" d="M131 33l12 106q219 -45 420 -45q161 0 237.5 70t76.5 211q0 76 -23 130t-65.5 84t-93 44.5t-115.5 17.5h-275v111h273q41 0 86 17.5t85.5 48.5t66.5 83t26 113q0 127 -67 181.5t-228 54.5q-86 0 -181 -11t-148 -21l-52 -11l-12 104q22 6 59.5 14.5t142 22.5t195.5 14 q228 0 325 -82t97 -264q0 -46 -10 -87t-28 -71t-37 -53.5t-43 -41t-40.5 -27.5t-35 -19t-19.5 -10q61 -19 100.5 -40t76 -58t54 -96t17.5 -142q0 -202 -106 -301.5t-329 -99.5q-96 0 -206.5 13t-172.5 27z" />
<glyph unicode="4" d="M82 274v99l397 979h139l-399 -965h539v432h127v-432h182v-113h-182v-274h-127v274h-676z" />
<glyph unicode="5" d="M135 39l17 104q231 -47 415 -47q152 0 241 90.5t89 257.5q0 158 -81.5 224.5t-229.5 66.5q-77 0 -161.5 -23.5t-130.5 -47.5l-46 -23l-94 16l39 695h776v-117h-670l-37 -477q18 10 50 25t121 40t165 25q207 0 318.5 -94t111.5 -303q0 -229 -118.5 -348t-331.5 -119 q-92 0 -203 14t-175 28z" />
<glyph unicode="6" d="M111 684q0 352 136 520t382 168q76 0 166.5 -8t142.5 -16l53 -7l-12 -104q-178 20 -350 20q-186 0 -286.5 -129.5t-100.5 -373.5l22 8q21 9 58.5 21.5t81.5 25.5t97.5 22t98.5 9q451 0 451 -414q0 -213 -121 -329.5t-346 -116.5q-241 0 -357 182.5t-116 521.5zM240 639 q2 -122 21 -218t58.5 -171t106.5 -115.5t158 -40.5q164 0 250 85t86 247q0 151 -85.5 226t-242.5 75q-75 0 -163 -22t-139 -44z" />
<glyph unicode="7" d="M162 1237v115h833v-181l-530 -1191l-121 40l522 1164v53h-704z" />
<glyph unicode="8" d="M66 344q0 79 17.5 137.5t54 100.5t76 69t101.5 58q-118 53 -172.5 124t-54.5 195q0 171 127 257.5t354 86.5t357.5 -86.5t130.5 -259.5q0 -128 -57.5 -198t-188.5 -119q63 -24 108 -51t82.5 -66.5t56.5 -95.5t19 -129q0 -387 -508 -387q-85 0 -156.5 11t-137 37t-111 67 t-72 104.5t-26.5 144.5zM203 362q0 -266 366 -266q85 0 150 13.5t117.5 44.5t80 86.5t27.5 134.5q0 53 -14.5 94.5t-37 68.5t-59.5 49t-72.5 34.5t-86.5 25.5h-225q-123 -33 -184.5 -98t-61.5 -187zM223 1016q0 -102 54.5 -161t171.5 -97h225q124 35 186 95.5t62 160.5 q0 243 -353 243q-169 0 -257.5 -56.5t-88.5 -184.5z" />
<glyph unicode="9" d="M90 924q0 205 126 326.5t337 121.5q244 0 362.5 -185t118.5 -519q0 -192 -35 -326.5t-105 -213t-164.5 -113.5t-223.5 -35q-76 0 -167 8t-143 16l-53 8l13 105q178 -23 350 -23q198 0 296 122.5t101 381.5l-23 -8q-23 -8 -63.5 -20t-87 -24.5t-101.5 -21t-100 -8.5 q-438 0 -438 408zM221 924q0 -152 79.5 -223.5t236.5 -71.5q67 0 159 20.5t150 40.5l59 21q-10 546 -352 546q-154 0 -243 -89.5t-89 -243.5z" />
<glyph unicode=":" horiz-adv-x="423" d="M143 0v207h136v-207h-136zM143 676v209h136v-209h-136z" />
<glyph unicode=";" horiz-adv-x="493" d="M109 -252h102l127 455h-141zM188 676v209h136v-209h-136z" />
<glyph unicode="&#x3c;" d="M121 459v110l860 426v-129l-735 -350l735 -356v-131z" />
<glyph unicode="=" d="M133 272v115h879v-115h-879zM133 639v115h879v-115h-879z" />
<glyph unicode="&#x3e;" d="M164 29v131l735 356l-735 350v129l860 -426v-110z" />
<glyph unicode="?" horiz-adv-x="919" d="M78 1384q217 60 342 60q207 0 309 -76.5t102 -251.5q0 -129 -36.5 -198t-159.5 -173q-99 -83 -144 -141t-45 -127v-74h-106q-18 52 -18 109q0 41 15 79t47 77t60.5 67t77.5 72q79 68 115 108.5t53 85t17 107.5q0 121 -71.5 172t-225.5 51q-47 0 -127 -12.5t-137 -25.5 l-56 -13zM324 2v205h135v-205h-135z" />
<glyph unicode="@" horiz-adv-x="2000" d="M111 535q0 253 59.5 434.5t178.5 293t287 163t396 51.5q458 0 665.5 -207.5t207.5 -644.5v-31q0 -116 -9 -207t-23.5 -155t-39.5 -109.5t-52 -72t-65.5 -41.5t-75 -20t-86.5 -5q-56 0 -100.5 13t-68 32t-38.5 37.5t-19 31.5l-5 13q-24 -14 -63.5 -35t-138 -55.5 t-169.5 -34.5q-38 0 -69.5 4t-69.5 17t-67 35t-58 61t-48 92t-30.5 131.5t-11.5 175.5q0 135 20 230.5t67.5 166.5t129.5 105t203 34q47 0 109.5 -14t101.5 -28l39 -13v35h123v-400q0 -80 0.5 -132t2 -107t4 -87.5t7.5 -66.5t11 -52t16.5 -36t21.5 -25.5t28 -14t35 -8 t44 -1.5q46 0 74 7t58.5 35t46.5 81.5t27 148.5t11 234v33q0 196 -40.5 333.5t-130 229.5t-231 135t-344.5 43q-205 0 -351.5 -45.5t-246.5 -145t-148 -258.5t-48 -384q0 -238 45.5 -399t145.5 -258.5t245.5 -139t357.5 -41.5q38 0 111.5 5t127.5 10l54 5l6 -110 q-197 -21 -299 -21q-156 0 -279 19t-228.5 62.5t-180.5 116t-128.5 177t-79 247.5t-25.5 327zM721 498q0 -101 14.5 -176.5t37 -117.5t55.5 -67.5t63 -33t67 -7.5q120 0 330 105q-2 8 -7 64.5t-9 149t-4 173.5v293q-134 47 -234 47q-76 0 -131 -18.5t-90 -51.5t-55.5 -88 t-28.5 -119t-8 -153z" />
<glyph unicode="A" horiz-adv-x="1216" d="M51 0l410 1423h297l407 -1423h-125l-114 393h-635l-113 -393h-127zM322 506h573l-231 807h-111z" />
<glyph unicode="B" horiz-adv-x="1263" d="M178 0v1423h506q210 0 315 -87t105 -271q0 -136 -48.5 -214.5t-140.5 -117.5q236 -74 236 -338q0 -111 -30.5 -189t-89.5 -122.5t-136 -64t-180 -19.5h-537zM305 113h408q150 0 229.5 63.5t79.5 222.5q0 71 -24 123t-58 79.5t-82 44t-83 20.5t-75 4h-395v-557zM305 780 h393q144 0 210.5 68.5t66.5 208.5q0 131 -72.5 192.5t-222.5 61.5h-375v-531z" />
<glyph unicode="C" horiz-adv-x="1114" d="M127 707q0 150 12 257.5t45 202.5t90.5 153t149 91t219.5 33q165 0 385 -43l-6 -111q-219 39 -369 39q-73 0 -130 -13.5t-98.5 -38t-71 -66t-48 -89t-29 -115.5t-14.5 -137.5t-4 -162.5q0 -92 4 -160.5t14.5 -135.5t29.5 -114t48.5 -87.5t71.5 -64.5t99 -37.5t130 -13.5 q150 0 367 39l6 -110q-215 -43 -385 -43q-125 0 -216 32t-149 89.5t-91.5 150.5t-46.5 200.5t-13 254.5z" />
<glyph unicode="D" horiz-adv-x="1323" d="M178 0v1423h518q506 0 506 -692q0 -123 -14.5 -226t-50.5 -198.5t-92 -161.5t-145 -105.5t-204 -39.5h-518zM305 113h391q73 0 131.5 24t99 68t69 100.5t45 128t23.5 144t7 153.5q0 578 -375 578h-391v-1196z" />
<glyph unicode="E" horiz-adv-x="1130" d="M178 0v1423h854v-114h-727v-529h604v-112h-604v-555h727v-113h-854z" />
<glyph unicode="F" horiz-adv-x="1075" d="M178 0v1423h840v-114h-713v-588h606v-113h-606v-608h-127z" />
<glyph unicode="G" horiz-adv-x="1263" d="M123 707q0 145 15 255t52.5 203.5t98.5 153t155.5 92.5t221.5 33q96 0 210.5 -13t181.5 -27l66 -13l-6 -109q-256 47 -442 47q-103 0 -177.5 -27t-121.5 -75t-74.5 -127.5t-38 -172t-10.5 -220.5q0 -127 10.5 -218t38 -169.5t74.5 -125.5t120.5 -73.5t176.5 -26.5 q138 0 325 33v479h-262v113h387v-688q-60 -13 -209.5 -32t-246.5 -19q-127 0 -221.5 32.5t-156 91t-99 150.5t-53 201t-15.5 252z" />
<glyph unicode="H" horiz-adv-x="1382" d="M178 0v1423h127v-653h772v653h125v-1423h-125v657h-772v-657h-127z" />
<glyph unicode="I" horiz-adv-x="483" d="M178 0v1423h127v-1423h-127z" />
<glyph unicode="J" horiz-adv-x="583" d="M37 -35q59 0 90.5 1.5t64.5 10t47.5 23t27.5 43t16.5 67.5t3.5 99v1214h125v-1241q0 -58 -5 -102.5t-17 -78.5t-27 -58t-41 -40.5t-51 -26.5t-65.5 -15t-77 -6.5t-91.5 -1.5v112z" />
<glyph unicode="K" horiz-adv-x="1153" d="M178 0v1423h127v-671l246 6l395 665h146l-430 -714l456 -709h-151l-414 643l-248 -4v-639h-127z" />
<glyph unicode="L" horiz-adv-x="983" d="M178 0v1423h127v-1308h651v-115h-778z" />
<glyph unicode="M" horiz-adv-x="1710" d="M178 0v1423h238l440 -1245l438 1245h238v-1423h-127v1292h-29l-446 -1245h-150l-446 1245h-29v-1292h-127z" />
<glyph unicode="N" horiz-adv-x="1376" d="M178 0v1423h250l596 -1310h47v1310h125v-1423h-246l-600 1309h-45v-1309h-127z" />
<glyph unicode="O" horiz-adv-x="1355" d="M123 705q0 147 15.5 258t54 204t101 152.5t158.5 92t226 32.5t226 -32.5t159.5 -91.5t101.5 -152t54 -204.5t16 -258.5q0 -152 -15.5 -263.5t-53.5 -202t-102 -146t-159.5 -84.5t-226.5 -29q-163 0 -272 45.5t-171 141t-87 224t-25 314.5zM254 705q0 -129 10 -219.5 t37 -168.5t74.5 -124.5t122.5 -72.5t180 -26q106 0 180.5 24.5t122.5 69.5t75 122.5t37.5 169.5t10.5 225q0 126 -11 219t-39.5 172.5t-76 128.5t-122.5 76.5t-177 27.5q-103 0 -177.5 -27t-122 -76t-75.5 -129t-38.5 -172.5t-10.5 -219.5z" />
<glyph unicode="P" horiz-adv-x="1214" d="M178 0v1423h520q227 0 335 -110.5t108 -339.5q0 -477 -443 -477h-393v-496h-127zM305 608h393q312 0 312 365q0 174 -74 256t-238 82h-393v-703z" />
<glyph unicode="Q" horiz-adv-x="1355" d="M123 705q0 147 15.5 258t54 204t101 152.5t158.5 92t226 32.5t226 -32.5t159.5 -91.5t101.5 -152t54 -204.5t16 -258.5q0 -268 -54 -426t-186 -232l174 -283l-120 -57l-179 295q-80 -22 -192 -22q-131 0 -226.5 30.5t-159 87t-101 147.5t-53 201t-15.5 259zM254 705 q0 -129 10 -219.5t37 -168.5t74.5 -124.5t122.5 -72.5t180 -26q88 0 154.5 15.5t113.5 50t77.5 82t48.5 119t25 152.5t7 192q0 126 -11 219t-39.5 172.5t-76 128.5t-122.5 76.5t-177 27.5q-103 0 -177.5 -27t-122 -76t-75.5 -129t-38.5 -172.5t-10.5 -219.5z" />
<glyph unicode="R" horiz-adv-x="1259" d="M178 0v1423h522q223 0 333 -102t110 -320q0 -341 -275 -415l293 -586h-141l-281 561h-434v-561h-127zM305 674h395q312 0 312 325q0 160 -76 236t-236 76h-395v-637z" />
<glyph unicode="S" horiz-adv-x="1107" d="M104 1073q0 373 451 373q74 0 179 -10t173 -20l68 -9l-10 -109q-283 35 -402 35q-330 0 -330 -252q0 -40 4.5 -71t17 -56.5t26 -44t39 -34.5t48.5 -26.5t63.5 -21.5t74 -18t88.5 -18q90 -18 151 -36t114 -47t83 -67.5t47 -94t17 -130.5q0 -228 -113.5 -330t-333.5 -102 q-72 0 -183 9.5t-186 19.5l-75 10l14 108q281 -35 426 -35q162 0 242 75t80 237q0 67 -17 110.5t-60 73.5t-100 47.5t-153 34.5q-96 18 -158 35.5t-121.5 47t-92 70t-52 101.5t-19.5 145z" />
<glyph unicode="T" horiz-adv-x="1077" d="M27 1309v114h1024v-114h-447v-1309h-127v1309h-450z" />
<glyph unicode="U" horiz-adv-x="1314" d="M170 418v1005h125v-1005q0 -171 90.5 -247.5t263.5 -76.5q184 0 276.5 75.5t92.5 248.5v1005h127v-1005q0 -231 -125 -334.5t-371 -103.5q-235 0 -357 104t-122 334z" />
<glyph unicode="V" horiz-adv-x="1181" d="M53 1423h131l346 -1310h121l346 1310h129l-381 -1423h-309z" />
<glyph unicode="W" horiz-adv-x="1789" d="M68 1423h129l258 -1310h67l299 1294h150l297 -1294h67l258 1310h129l-292 -1423h-254l-281 1249l-281 -1249h-254z" />
<glyph unicode="X" horiz-adv-x="1136" d="M43 0l446 700l-446 723h143l385 -628l383 628h140l-443 -721l443 -702h-144l-381 614l-387 -614h-139z" />
<glyph unicode="Y" horiz-adv-x="1093" d="M27 1423h141l379 -690l377 690h143l-457 -821v-602h-127v602z" />
<glyph unicode="Z" horiz-adv-x="1099" d="M88 -2v168l780 1098v45h-780v114h922v-170l-781 -1097v-43h781v-115h-922z" />
<glyph unicode="[" horiz-adv-x="659" d="M166 -252v1786h409v-111h-284v-1564h284v-111h-409z" />
<glyph unicode="\" horiz-adv-x="862" d="M61 1395l111 49l627 -1415l-113 -47z" />
<glyph unicode="]" horiz-adv-x="659" d="M84 -141h285v1564h-285v111h410v-1786h-410v111z" />
<glyph unicode="^" d="M137 655l375 697h115l389 -697h-133l-314 574l-299 -574h-133z" />
<glyph unicode="_" horiz-adv-x="1300" d="M211 -197h876v-110h-876v110z" />
<glyph unicode="`" horiz-adv-x="466" d="M6 1403l45 106l424 -198l-39 -86z" />
<glyph unicode="a" horiz-adv-x="1021" d="M88 289q0 141 72.5 212.5t228.5 86.5l348 35v96q0 114 -49.5 164.5t-150.5 50.5q-65 0 -162 -8t-161 -16l-64 -7l-7 98q226 43 398 43q165 0 241 -80t76 -245v-549q7 -75 133 -90l-6 -98q-158 0 -231 81q-22 -9 -59 -23t-138.5 -37t-187.5 -23q-136 0 -208.5 78.5 t-72.5 230.5zM215 291q0 -99 43 -153t127 -54q74 0 162 18t139 36l51 18v370l-334 -34q-101 -9 -144.5 -57.5t-43.5 -143.5z" />
<glyph unicode="b" horiz-adv-x="1067" d="M152 0v1479h122v-510q18 8 49 20.5t115.5 33.5t155.5 21q205 0 284.5 -119t79.5 -397q0 -154 -21.5 -254t-76.5 -168t-147 -97t-234 -29q-57 0 -139 5t-135 10zM274 102q144 -12 205 -12q91 0 153 17.5t101.5 48.5t61 87.5t29 121.5t7.5 163q0 219 -52 312.5t-195 93.5 q-70 0 -147.5 -17.5t-120.5 -34.5l-42 -18v-762z" />
<glyph unicode="c" horiz-adv-x="886" d="M111 530q0 280 97 397t327 117q39 0 105.5 -6.5t113.5 -13.5l47 -6l-6 -105q-162 21 -240 21q-182 0 -249.5 -89.5t-67.5 -314.5q0 -103 7.5 -170.5t27 -123t55.5 -85.5t91 -45.5t136 -15.5q35 0 96 5t105 9l43 5l4 -105q-183 -24 -271 -24q-101 0 -171.5 19t-120 58 t-77.5 106t-40 154.5t-12 212.5z" />
<glyph unicode="d" horiz-adv-x="1071" d="M109 500q0 278 98 411t332 133q89 0 258 -26v461h123v-1479h-123v76q-7 -4 -18.5 -10.5t-48.5 -23t-74 -29t-89 -23t-98 -10.5q-59 0 -104.5 9t-96 41t-83.5 86.5t-54.5 152t-21.5 231.5zM236 500q0 -105 14.5 -181.5t37 -119.5t56.5 -68.5t65.5 -33t71.5 -7.5 q69 0 148 22t123 44l45 22v733q-171 25 -254 25q-90 0 -150.5 -27.5t-94.5 -86t-48 -135t-14 -187.5z" />
<glyph unicode="e" horiz-adv-x="1032" d="M109 508q0 536 421 536q202 0 303 -116t101 -369l-4 -98h-697q0 -189 64.5 -280t220.5 -91q67 0 160.5 5t153.5 9l61 5l4 -101q-231 -28 -391 -28q-113 1 -190.5 34.5t-122.5 102.5t-64.5 163.5t-19.5 227.5zM233 563h578q0 203 -67 289t-214 86q-145 0 -221 -89 t-76 -286z" />
<glyph unicode="f" horiz-adv-x="663" d="M61 915v109h134v104q0 148 27.5 228t84 111.5t158.5 31.5q31 0 81 -2.5t84 -4.5l34 -3v-105q-122 5 -181 5q-95 0 -130.5 -53.5t-35.5 -209.5v-102h310v-109h-310v-915h-122v915h-134z" />
<glyph unicode="g" horiz-adv-x="1042" d="M109 -170q0 46 9.5 81t33 65.5t50 54t72.5 57.5q-51 34 -51 139q0 16 16.5 56t32.5 72l17 32q-168 71 -168 309q0 180 97.5 264t273.5 84q47 0 101 -6.5t84 -13.5l30 -6l297 6v-109l-205 5q73 -73 73 -224q0 -189 -93 -265.5t-294 -76.5q-58 0 -104 8q-41 -99 -41 -126 q0 -25 2 -38.5t11.5 -26.5t24.5 -18.5t47 -10t71 -5.5t104 -2q111 0 178.5 -11.5t116.5 -44t68.5 -90.5t19.5 -151q0 -169 -111 -246t-337 -77q-101 0 -171.5 10t-121 32t-79 59.5t-41.5 89t-13 124.5zM231 -162q0 -84 24.5 -128.5t90.5 -66.5t191 -22q170 0 245.5 50 t75.5 163q0 52 -10 87t-27.5 56t-52.5 32t-73.5 14.5t-102.5 3.5l-232 8q-76 -54 -102.5 -93.5t-26.5 -103.5zM246 696q0 -130 57.5 -184.5t188.5 -54.5q141 0 198.5 53.5t57.5 185.5q0 134 -58 190t-198 56q-130 0 -188 -57t-58 -189z" />
<glyph unicode="h" horiz-adv-x="1091" d="M154 0v1479h120v-514q19 9 52 22t121 35t159 22q85 0 143.5 -17t98 -52t61 -97t30.5 -141.5t9 -197.5v-539h-123v532q0 97 -5 158.5t-19 112.5t-40.5 77t-67.5 40t-103 14q-71 0 -150 -17.5t-122 -34.5l-44 -18v-864h-120z" />
<glyph unicode="i" horiz-adv-x="428" d="M154 0v1024h120v-1024h-120zM154 1280v154h120v-154h-120z" />
<glyph unicode="j" horiz-adv-x="428" d="M-109 -354q71 40 111.5 67.5t74 58t48 65t22 77.5t7.5 106v1004h122v-1006q0 -181 -66.5 -274.5t-268.5 -196.5zM154 1280v154h122v-154h-122z" />
<glyph unicode="k" horiz-adv-x="962" d="M154 0v1479h120v-881l175 4l315 422h141l-350 -469l367 -555h-144l-327 494l-177 -5v-489h-120z" />
<glyph unicode="l" horiz-adv-x="452" d="M166 0v1479h121v-1479h-121z" />
<glyph unicode="m" horiz-adv-x="1710" d="M154 0v1024h120v-76q18 11 48 27t113 42.5t153 26.5q105 0 167.5 -25.5t100.5 -82.5q7 4 20.5 11.5t55 26t83 33t99.5 26t111 11.5q106 0 171.5 -24.5t104 -87t52.5 -153.5t14 -240v-539h-121v532q0 97 -5 158.5t-19 112t-41 77.5t-68 40.5t-103 13.5q-75 0 -152.5 -21.5 t-117.5 -42.5l-41 -22q31 -77 31 -316v-532h-123v528q0 98 -5 161t-19 114t-41 77.5t-67.5 40t-101.5 13.5q-71 0 -146 -21.5t-114 -42.5l-39 -22v-848h-120z" />
<glyph unicode="n" horiz-adv-x="1091" d="M154 0v1024h120v-76q7 4 19.5 10.5t51 23t76.5 29t90 23t97 10.5q85 0 143.5 -17t98 -52t61 -97t30.5 -141.5t9 -197.5v-539h-123v532q0 80 -3.5 134.5t-12.5 103t-25.5 77t-43 49.5t-63.5 29.5t-89 8.5q-71 0 -150 -21.5t-122 -42.5l-44 -22v-848h-120z" />
<glyph unicode="o" horiz-adv-x="1079" d="M111 526q0 275 97.5 396.5t332.5 121.5q233 0 330.5 -121.5t97.5 -396.5q0 -151 -19 -249.5t-67 -167.5t-131 -99t-211 -30q-129 0 -212.5 30t-131.5 99t-67 167t-19 250zM238 526q0 -102 6 -167t24 -121.5t51.5 -86.5t87.5 -46.5t134 -16.5q66 0 114 10t82 34.5 t54.5 56.5t32.5 85t16 110.5t4 141.5q0 232 -64.5 321t-238.5 89q-175 0 -239 -88.5t-64 -321.5z" />
<glyph unicode="p" horiz-adv-x="1071" d="M154 -461v1485h120v-78q7 4 18.5 10.5t48 23.5t73 30t87.5 23.5t97 10.5q191 0 278 -125t87 -393q0 -295 -102.5 -420.5t-340.5 -125.5q-126 0 -246 26v-467h-120zM274 113q146 -25 242 -25q177 0 248.5 100t71.5 338q0 217 -62.5 312.5t-187.5 95.5q-68 0 -146 -23 t-122 -46l-44 -23v-729z" />
<glyph unicode="q" horiz-adv-x="1067" d="M109 496q0 299 105 423.5t372 124.5q45 0 127 -5t141 -10l59 -5v-1485h-120v512q-16 -8 -45 -20t-109.5 -31.5t-151.5 -19.5q-206 0 -292 122.5t-86 393.5zM233 496q0 -208 60 -307t205 -99q69 0 143 17t113 34l39 17v766q-139 12 -205 12q-107 0 -177 -25.5t-109 -83 t-54 -135.5t-15 -196z" />
<glyph unicode="r" horiz-adv-x="694" d="M154 0v1024h120v-147q20 14 55.5 36.5t137.5 68t195 62.5v-122q-88 -18 -185 -56.5t-150 -67.5l-53 -30v-768h-120z" />
<glyph unicode="s" horiz-adv-x="950" d="M96 754q0 65 21 115.5t55.5 82.5t82.5 52.5t98 29t106 8.5q68 0 158.5 -8.5t146.5 -17.5l57 -8l-4 -109q-219 33 -354 33q-242 0 -242 -174q0 -79 53.5 -112.5t221.5 -61.5q84 -14 138.5 -28t100.5 -35t70.5 -50.5t37.5 -72t13 -101.5q0 -172 -100 -244.5t-295 -72.5 q-56 0 -143.5 9t-147.5 18l-59 9l8 109q230 -35 334 -35q141 0 209.5 43.5t68.5 157.5q0 90 -56.5 123.5t-234.5 60.5q-77 12 -127 24t-95 32.5t-69.5 49t-38.5 71.5t-14 102z" />
<glyph unicode="t" horiz-adv-x="710" d="M55 915v109h152v322h123v-322h342v-109h-342v-505q0 -70 2 -113.5t8 -83t16.5 -61t29.5 -37.5t44.5 -21.5t63.5 -5.5q25 0 72 3.5t82 6.5l34 4l8 -104q-135 -21 -207 -21q-105 0 -163 31.5t-85.5 111.5t-27.5 228v567h-152z" />
<glyph unicode="u" horiz-adv-x="1075" d="M143 489v535h121v-532q0 -98 5 -159.5t19 -112.5t40.5 -77t68 -39.5t103.5 -13.5q72 0 147 21.5t115 42.5l39 22v848h121v-1024h-121v76q-18 -11 -48.5 -27t-114 -42.5t-153.5 -26.5q-72 0 -124.5 10.5t-91 36.5t-62.5 63t-38.5 97t-20 131t-5.5 171z" />
<glyph unicode="v" horiz-adv-x="976" d="M55 1024h135l256 -918h82l267 918h127l-299 -1024h-269z" />
<glyph unicode="w" horiz-adv-x="1556" d="M68 1024h125l225 -918h28l267 898h129l266 -898h31l225 918h125l-256 -1024h-213l-242 844l-243 -844h-211z" />
<glyph unicode="x" horiz-adv-x="913" d="M49 0l330 512l-330 512h137l271 -422l270 422h137l-334 -510l332 -514h-135l-270 420l-271 -420h-137z" />
<glyph unicode="y" horiz-adv-x="978" d="M55 1024h125l273 -918h73l275 918h125l-443 -1485h-123l138 461h-142z" />
<glyph unicode="z" horiz-adv-x="931" d="M86 0v111l608 802h-608v111h760v-111l-608 -802h608v-111h-760z" />
<glyph unicode="{" horiz-adv-x="716" d="M53 586v102q116 27 166.5 82.5t50.5 149.5q0 26 -7 124t-7 138q0 187 86 270t289 90l2 -106q-148 -7 -203 -69.5t-55 -190.5q0 -35 7 -127.5t7 -120.5q0 -132 -44 -192t-167 -97q122 -36 167.5 -99t45.5 -192q-1 -14 -7.5 -103.5t-6.5 -135.5q0 -62 11 -106t39 -79 t79 -53.5t127 -22.5l-4 -108q-202 7 -287.5 91t-85.5 269q0 44 7 137t7 115q0 91 -50.5 145.5t-166.5 88.5z" />
<glyph unicode="|" horiz-adv-x="452" d="M164 -461v1940h123v-1940h-123z" />
<glyph unicode="}" horiz-adv-x="716" d="M84 -152q76 4 127 22.5t79 53.5t39 79t11 106q0 46 -6.5 135.5t-7.5 103.5q0 129 45.5 192t167.5 99q-123 37 -167 97t-44 192q0 28 7 120.5t7 127.5q0 128 -55 190.5t-203 69.5l2 106q203 -7 289 -90t86 -270q0 -40 -7.5 -138t-7.5 -124q0 -94 50.5 -149.5t167.5 -82.5 v-102q-117 -34 -167.5 -88.5t-50.5 -145.5q0 -22 7.5 -115t7.5 -137q0 -185 -85.5 -269t-287.5 -91z" />
<glyph unicode="~" d="M139 551q5 5 14.5 12t37.5 26.5t55.5 34t63 26.5t65.5 12q49 0 131 -34t160 -68t116 -34q33 0 85 25t88 49l36 25l21 -103q-14 -12 -37.5 -30.5t-84.5 -49t-108 -30.5q-50 0 -133.5 34t-161 67.5t-112.5 33.5q-36 0 -89 -25.5t-88 -50.5l-36 -25z" />
<glyph unicode="&#xa1;" horiz-adv-x="448" d="M154 819v205h135v-205h-135zM158 -399l8 966h115l6 -966h-129z" />
<glyph unicode="&#xa2;" d="M213 508q0 225 86.5 328.5t273.5 111.5v252h109v-256q40 -1 94.5 -7t89.5 -11l35 -6l-4 -103q-163 19 -272 19q-155 0 -218 -74.5t-63 -253.5q0 -183 62 -250.5t235 -67.5q48 0 112.5 4t104.5 8l41 3l6 -105q-135 -16 -221 -20v-250h-111v248q-128 5 -204 43.5t-116 132 t-40 254.5z" />
<glyph unicode="&#xa3;" d="M166 0v111h178v626h-137v109h137v108q0 128 16 209t54 127t91 63t136 17q43 0 108.5 -8t109.5 -16l44 -7l-2 -102q-168 23 -252 23q-74 0 -111.5 -26.5t-54 -92.5t-16.5 -195v-100h356v-109h-356v-626h330l161 32l21 -106l-166 -37h-647z" />
<glyph unicode="&#xa4;" d="M133 164l143 141q-65 94 -65 211q0 115 65 209l-143 143l88 88l141 -145q98 68 211 68q111 0 209 -68l144 145l88 -88l-146 -143q68 -98 68 -209q0 -113 -68 -211l146 -141l-88 -88l-144 143q-94 -65 -209 -65q-117 0 -211 65l-141 -143zM324 516q0 -103 73 -176.5 t176 -73.5q102 0 176 74t74 176q0 101 -74.5 175.5t-175.5 74.5q-102 0 -175.5 -74t-73.5 -176z" />
<glyph unicode="&#xa5;" d="M55 1352h142l378 -584l373 584h144l-367 -586h303v-109h-369l-20 -41v-159h391v-109h-391v-348h-127v348h-393v109h393v159l-18 41h-377v109h309z" />
<glyph unicode="&#xa6;" horiz-adv-x="460" d="M168 311h123v-772h-123v772zM168 711v768h123v-768h-123z" />
<glyph unicode="&#xa7;" horiz-adv-x="1011" d="M115 543q0 83 44 158.5t70 95.5q-46 35 -68 88t-22 141q0 157 98.5 235t282.5 78q59 0 141.5 -7.5t135.5 -15.5l53 -7l-6 -105q-222 27 -320 27q-134 0 -199 -48.5t-65 -152.5q0 -48 12.5 -81.5t32.5 -55.5t61 -38.5t81.5 -26t109.5 -21.5q89 -16 144.5 -34t101.5 -50.5 t66 -83t20 -125.5q0 -79 -30.5 -156t-53.5 -110q74 -59 74 -199q0 -336 -377 -336q-56 0 -144 8.5t-148 16.5l-60 8l10 104q225 -30 338 -30q262 0 262 223q0 37 -7 63.5t-26 46.5t-38 32.5t-59 23.5t-72 17t-93 16q-186 31 -268 94.5t-82 206.5zM238 559q0 -97 58.5 -140.5 t199.5 -66.5q148 -24 215 -55q5 5 17 32.5t25 77t13 93.5q0 43 -11.5 74t-30 51t-53 35t-69 23.5t-90.5 18.5q-143 26 -199 50q-75 -112 -75 -193z" />
<glyph unicode="&#xa8;" horiz-adv-x="466" d="M-16 1284v164h120v-164h-120zM387 1284v164h119v-164h-119z" />
<glyph unicode="&#xa9;" horiz-adv-x="1323" d="M127 889q0 153 68.5 279.5t191.5 200t275 73.5t274.5 -74.5t190 -200.5t67.5 -278q0 -153 -68 -279.5t-191 -200t-276 -73.5q-150 0 -272.5 74t-191 200.5t-68.5 278.5zM209 889q0 -129 57.5 -237t161.5 -172t231 -64q195 0 325 137.5t130 335.5q0 197 -130.5 335 t-324.5 138q-127 0 -231 -64t-161.5 -172t-57.5 -237zM432 889q0 162 51.5 240.5t184.5 78.5q36 0 74.5 -4.5t58.5 -9.5l20 -4l-4 -94q-81 14 -147 14q-36 0 -60.5 -10t-39 -26t-22.5 -46t-10.5 -60.5t-2.5 -78.5q0 -115 28 -168t107 -53q26 0 63 3.5t61 6.5l23 4l4 -92 q-79 -21 -155 -21q-130 0 -182 78t-52 242z" />
<glyph unicode="&#xaa;" horiz-adv-x="774" d="M117 932q0 82 44 123t136 47l190 12v45q0 53 -24 74.5t-78 21.5q-33 0 -89.5 -3.5t-97.5 -7.5l-40 -3l-4 82q141 27 235 27q105 0 155 -44.5t50 -150.5v-278q19 -27 65 -39l-4 -84q-62 0 -91 11t-56 38q-118 -49 -227 -49q-75 0 -119.5 48t-44.5 130zM225 932 q0 -86 78 -86q36 0 82 9t74 19l28 9v149l-172 -10q-47 -3 -68.5 -24.5t-21.5 -65.5z" />
<glyph unicode="&#xab;" horiz-adv-x="1071" d="M94 459v104l371 283v-129l-264 -203l264 -223v-131zM557 459v104l371 283v-129l-264 -203l264 -223v-131z" />
<glyph unicode="&#xac;" d="M137 580v112h873v-446h-117v334h-756z" />
<glyph unicode="&#xad;" horiz-adv-x="911" d="M145 510v115h623v-115h-623z" />
<glyph unicode="&#xae;" horiz-adv-x="1323" d="M127 889q0 153 68.5 279.5t190.5 200t273 73.5q153 0 276.5 -74.5t191 -200.5t67.5 -278q0 -153 -68 -279.5t-191 -200t-276 -73.5q-150 0 -272.5 74t-191 200.5t-68.5 278.5zM209 889q0 -129 58 -237t162 -172t230 -64q195 0 325 137.5t130 335.5q0 197 -130.5 335 t-324.5 138q-127 0 -231 -64t-161.5 -172t-57.5 -237zM442 580v614h213q117 0 174.5 -43t57.5 -147q0 -75 -25.5 -119.5t-85.5 -65.5l121 -239h-104l-117 227h-135v-227h-99zM541 891h137q60 0 86.5 25t26.5 85q0 59 -34.5 84t-107.5 25h-108v-219z" />
<glyph unicode="&#xaf;" horiz-adv-x="466" d="M-33 1292v101h557v-101h-557z" />
<glyph unicode="&#xb0;" d="M287 1157q0 128 79.5 207.5t206.5 79.5t206 -79.5t79 -207.5q0 -127 -78.5 -205t-206.5 -78t-207 78t-79 205zM379 1157q0 -89 52.5 -142.5t141.5 -53.5q90 0 144.5 53.5t54.5 142.5t-55 144t-144 55t-141.5 -54.5t-52.5 -144.5z" />
<glyph unicode="&#xb1;" d="M117 86v115h913v-115h-913zM117 610v115h395v266h117v-266h401v-115h-401v-272h-117v272h-395z" />
<glyph unicode="&#xb2;" horiz-adv-x="573" d="M66 979v94l188 195q55 55 80.5 93.5t25.5 86.5q0 44 -29 66t-77 22q-28 0 -72.5 -4.5t-75.5 -9.5l-30 -4l-4 94q114 24 202 24q101 0 149 -44t48 -136q0 -69 -28.5 -118.5t-98.5 -116.5l-141 -144h278v-98h-415z" />
<glyph unicode="&#xb3;" horiz-adv-x="573" d="M68 981l6 94q115 -16 209 -16q56 0 83 26.5t27 71.5q0 103 -104 103h-133v94h131q33 0 61.5 31t28.5 73q0 80 -105 80q-39 0 -86.5 -4t-75.5 -8l-28 -4l-6 94q115 20 205 20q106 0 156 -40.5t50 -127.5q0 -37 -11 -67t-27.5 -47t-27.5 -25t-20 -12q54 -16 78.5 -50.5 t24.5 -111.5q0 -197 -211 -197q-44 0 -100.5 6t-90.5 12z" />
<glyph unicode="&#xb4;" horiz-adv-x="548" d="M63 1311l424 198l45 -106l-430 -178z" />
<glyph unicode="&#xb5;" d="M182 -461v1485h121v-532q0 -98 5 -159.5t19 -112.5t40.5 -77t68 -39.5t103.5 -13.5q72 0 147.5 21.5t114.5 42.5l39 22v848h121v-1024h-121v76q-18 -11 -48.5 -27t-114 -42.5t-153.5 -26.5q-147 0 -221 51v-492h-121z" />
<glyph unicode="&#xb6;" horiz-adv-x="1210" d="M76 1051q0 164 109 268t272 104h673v-108h-167v-1315h-113v1315h-266v-1315h-113v684h-14q-165 0 -273 102t-108 265z" />
<glyph unicode="&#xb7;" horiz-adv-x="423" d="M145 500v207h136v-207h-136z" />
<glyph unicode="&#xb8;" horiz-adv-x="538" d="M92 -420l4 82q85 -6 146 -6q92 0 92 84q0 76 -92 76h-97v186h78v-108q119 0 171 -32t52 -122q0 -88 -48.5 -130t-133.5 -42q-40 0 -83 3t-66 6z" />
<glyph unicode="&#xb9;" horiz-adv-x="573" d="M76 1477l207 141h102v-639h-109v518l-149 -102z" />
<glyph unicode="&#xba;" horiz-adv-x="757" d="M115 1055q0 152 66 223.5t198 71.5t196 -71.5t64 -223.5q0 -153 -64.5 -227t-195.5 -74q-264 0 -264 301zM229 1055q0 -106 35 -152.5t115 -46.5q81 0 114 46t33 153q0 105 -33 148.5t-114 43.5q-80 0 -115 -44t-35 -148z" />
<glyph unicode="&#xbb;" horiz-adv-x="1071" d="M143 160v131l263 223l-263 203v129l371 -283v-104zM606 160v131l262 223l-262 203v129l371 -283v-104z" />
<glyph unicode="&#xbc;" horiz-adv-x="1087" d="M74 57l803 1293l73 -47l-803 -1291zM84 1477l207 141h102v-639h-108v518l-150 -102zM553 -6l156 440h118l-159 -434h176l8 180h100v-180h64v-100h-64v-105h-108v105h-291v94z" />
<glyph unicode="&#xbd;" horiz-adv-x="1075" d="M70 57l802 1293l74 -47l-803 -1291zM94 1477l207 141h102v-639h-108v518l-150 -102zM565 -111l189 195q55 55 80.5 93.5t25.5 86.5q0 44 -29 66t-77 22q-28 0 -73 -4.5t-75 -9.5l-31 -4l-4 94q115 25 203 25q101 0 149 -44.5t48 -136.5q0 -69 -28.5 -118.5t-98.5 -116.5 l-142 -143h279v-99h-416v94z" />
<glyph unicode="&#xbe;" horiz-adv-x="1120" d="M109 981l6 94q115 -16 209 -16q56 0 83 26.5t27 71.5q0 103 -104 103h-133v94h131q33 0 61.5 31t28.5 73q0 80 -105 80q-39 0 -86.5 -4t-75.5 -8l-28 -4l-6 94q115 20 205 20q106 0 156 -40.5t50 -127.5q0 -37 -11 -67t-27.5 -47t-27.5 -25t-20 -12q54 -16 78.5 -50.5 t24.5 -111.5q0 -197 -211 -197q-44 0 -100.5 6t-90.5 12zM111 57l802 1293l74 -47l-803 -1291zM590 -6l155 440h119l-159 -434h176l8 180h100v-180h64v-100h-64v-105h-108v105h-291v94z" />
<glyph unicode="&#xbf;" horiz-adv-x="907" d="M82 -90q0 89 16 144t56 105t125 122q99 82 143.5 140.5t44.5 127.5v74h106q19 -52 19 -109q0 -41 -15 -79t-47.5 -77.5t-60.5 -67t-78 -71.5q-114 -98 -149 -154t-35 -147q0 -121 71.5 -172t225.5 -51q47 0 127 12.5t136 25.5l56 13l13 -104q-217 -60 -342 -60 q-208 0 -310 76.5t-102 251.5zM455 819v205h135v-205h-135z" />
<glyph unicode="&#xc0;" horiz-adv-x="1216" d="M51 0l410 1423h297l407 -1423h-125l-114 393h-635l-113 -393h-127zM322 506h573l-231 807h-111zM344 1790l45 111l424 -203l-41 -88z" />
<glyph unicode="&#xc1;" horiz-adv-x="1216" d="M51 0l410 1423h297l407 -1423h-125l-114 393h-635l-113 -393h-127zM322 506h573l-231 807h-111zM393 1698l424 203l45 -111l-428 -180z" />
<glyph unicode="&#xc2;" horiz-adv-x="1216" d="M51 0l410 1423h297l407 -1423h-125l-114 393h-635l-113 -393h-127zM279 1634l274 269h106l275 -269h-141l-185 176l-186 -176h-143zM322 506h573l-231 807h-111z" />
<glyph unicode="&#xc3;" horiz-adv-x="1216" d="M51 0l410 1423h297l407 -1423h-125l-114 393h-635l-113 -393h-127zM266 1776q11 13 29 32t64 50.5t81 31.5q41 0 110 -28t132 -56t88 -28q18 0 51.5 23.5t57.5 46.5l24 24l31 -92q-10 -13 -26 -31.5t-59 -50t-77 -31.5q-49 0 -175 58.5t-157 58.5q-20 0 -56 -26t-62 -52 l-25 -25zM322 506h573l-231 807h-111z" />
<glyph unicode="&#xc4;" horiz-adv-x="1216" d="M51 0l410 1423h297l407 -1423h-125l-114 393h-635l-113 -393h-127zM322 506h573l-231 807h-111zM342 1677v164h121v-164h-121zM754 1677v164h118v-164h-118z" />
<glyph unicode="&#xc5;" horiz-adv-x="1216" d="M51 0l395 1378q-67 55 -67 158q0 95 62.5 150t162.5 55t162.5 -55t62.5 -150q0 -97 -61 -152l397 -1384h-125l-114 393h-635l-113 -393h-127zM322 506h573l-231 807h-111zM475 1536q0 -47 23.5 -76t66.5 -37h78q42 8 66 37t24 76q0 55 -34 85t-95 30t-95 -30t-34 -85z " />
<glyph unicode="&#xc6;" horiz-adv-x="1796" d="M45 0l479 1427h1172v-118h-727v-516h604v-119h-604v-555h727v-119h-852v389h-533l-135 -389h-131zM346 510h498v799h-228z" />
<glyph unicode="&#xc7;" horiz-adv-x="1114" d="M127 707q0 150 12 257.5t45 202.5t90.5 153t149 91t219.5 33q165 0 385 -43l-6 -111q-219 39 -369 39q-73 0 -130 -13.5t-98.5 -38t-71 -66t-48 -89t-29 -115.5t-14.5 -137.5t-4 -162.5q0 -92 4 -160.5t14.5 -135.5t29.5 -114t48.5 -87.5t71.5 -64.5t99 -37.5t130 -13.5 q150 0 367 39l6 -110q-194 -40 -366 -43v-86q119 0 171 -32t52 -122q0 -87 -48.5 -129.5t-134.5 -42.5q-40 0 -83 3t-66 6l-23 3l5 82q84 -6 145 -6q92 0 92 84q0 76 -92 76h-96v166q-111 7 -191.5 43.5t-131.5 95t-81 149.5t-41.5 194t-11.5 243z" />
<glyph unicode="&#xc8;" horiz-adv-x="1130" d="M178 0v1423h854v-114h-727v-529h604v-112h-604v-555h727v-113h-854zM362 1790l46 111l423 -203l-40 -88z" />
<glyph unicode="&#xc9;" horiz-adv-x="1130" d="M178 0v1423h854v-114h-727v-529h604v-112h-604v-555h727v-113h-854zM373 1698l424 203l45 -111l-428 -180z" />
<glyph unicode="&#xca;" horiz-adv-x="1130" d="M178 0v1423h854v-114h-727v-529h604v-112h-604v-555h727v-113h-854zM270 1634l275 269h106l275 -269h-142l-184 176l-186 -176h-144z" />
<glyph unicode="&#xcb;" horiz-adv-x="1130" d="M178 0v1423h854v-114h-727v-529h604v-112h-604v-555h727v-113h-854zM338 1677v164h121v-164h-121zM750 1677v164h118v-164h-118z" />
<glyph unicode="&#xcc;" horiz-adv-x="483" d="M-39 1790l45 111l424 -203l-41 -88zM178 0v1423h127v-1423h-127z" />
<glyph unicode="&#xcd;" horiz-adv-x="483" d="M29 1698l424 203l45 -111l-428 -180zM178 0v1423h127v-1423h-127z" />
<glyph unicode="&#xce;" horiz-adv-x="483" d="M-96 1634l274 269h107l274 -269h-141l-185 176l-186 -176h-143zM178 0v1423h127v-1423h-127z" />
<glyph unicode="&#xcf;" horiz-adv-x="483" d="M-25 1677v164h121v-164h-121zM178 0v1423h127v-1423h-127zM387 1677v164h119v-164h-119z" />
<glyph unicode="&#xd0;" horiz-adv-x="1329" d="M39 655v119h145v653h516q508 0 508 -692q0 -123 -14.5 -226.5t-51 -199.5t-93 -163t-145.5 -106.5t-204 -39.5h-516v655h-145zM309 119h391q87 0 154 35.5t108.5 93.5t68 140t36.5 166t10 181q0 574 -377 574h-391v-535h338v-119h-338v-536z" />
<glyph unicode="&#xd1;" horiz-adv-x="1376" d="M178 0v1423h250l596 -1310h47v1310h125v-1423h-246l-600 1309h-45v-1309h-127zM350 1776q11 13 29 32t64 50.5t81 31.5q41 0 110 -28t132 -56t88 -28q18 0 51.5 23.5t57.5 46.5l24 24l31 -92q-10 -13 -26 -31.5t-59 -50t-77 -31.5q-49 0 -175 58.5t-157 58.5 q-20 0 -56 -26t-62 -52l-25 -25z" />
<glyph unicode="&#xd2;" horiz-adv-x="1355" d="M123 705q0 147 15.5 258t54 204t101 152.5t158.5 92t226 32.5t226 -32.5t159.5 -91.5t101.5 -152t54 -204.5t16 -258.5q0 -152 -15.5 -263.5t-53.5 -202t-102 -146t-159.5 -84.5t-226.5 -29q-163 0 -272 45.5t-171 141t-87 224t-25 314.5zM254 705q0 -129 10 -219.5 t37 -168.5t74.5 -124.5t122.5 -72.5t180 -26q106 0 180.5 24.5t122.5 69.5t75 122.5t37.5 169.5t10.5 225q0 126 -11 219t-39.5 172.5t-76 128.5t-122.5 76.5t-177 27.5q-103 0 -177.5 -27t-122 -76t-75.5 -129t-38.5 -172.5t-10.5 -219.5zM430 1790l45 111l424 -203 l-41 -88z" />
<glyph unicode="&#xd3;" horiz-adv-x="1355" d="M123 705q0 147 15.5 258t54 204t101 152.5t158.5 92t226 32.5t226 -32.5t159.5 -91.5t101.5 -152t54 -204.5t16 -258.5q0 -152 -15.5 -263.5t-53.5 -202t-102 -146t-159.5 -84.5t-226.5 -29q-163 0 -272 45.5t-171 141t-87 224t-25 314.5zM254 705q0 -129 10 -219.5 t37 -168.5t74.5 -124.5t122.5 -72.5t180 -26q106 0 180.5 24.5t122.5 69.5t75 122.5t37.5 169.5t10.5 225q0 126 -11 219t-39.5 172.5t-76 128.5t-122.5 76.5t-177 27.5q-103 0 -177.5 -27t-122 -76t-75.5 -129t-38.5 -172.5t-10.5 -219.5zM422 1698l424 203l45 -111 l-428 -180z" />
<glyph unicode="&#xd4;" horiz-adv-x="1355" d="M123 705q0 147 15.5 258t54 204t101 152.5t158.5 92t226 32.5t226 -32.5t159.5 -91.5t101.5 -152t54 -204.5t16 -258.5q0 -152 -15.5 -263.5t-53.5 -202t-102 -146t-159.5 -84.5t-226.5 -29q-163 0 -272 45.5t-171 141t-87 224t-25 314.5zM254 705q0 -129 10 -219.5 t37 -168.5t74.5 -124.5t122.5 -72.5t180 -26q106 0 180.5 24.5t122.5 69.5t75 122.5t37.5 169.5t10.5 225q0 126 -11 219t-39.5 172.5t-76 128.5t-122.5 76.5t-177 27.5q-103 0 -177.5 -27t-122 -76t-75.5 -129t-38.5 -172.5t-10.5 -219.5zM350 1634l275 269h106l275 -269 h-142l-184 176l-186 -176h-144z" />
<glyph unicode="&#xd5;" horiz-adv-x="1355" d="M123 705q0 147 15.5 258t54 204t101 152.5t158.5 92t226 32.5t226 -32.5t159.5 -91.5t101.5 -152t54 -204.5t16 -258.5q0 -152 -15.5 -263.5t-53.5 -202t-102 -146t-159.5 -84.5t-226.5 -29q-163 0 -272 45.5t-171 141t-87 224t-25 314.5zM254 705q0 -129 10 -219.5 t37 -168.5t74.5 -124.5t122.5 -72.5t180 -26q106 0 180.5 24.5t122.5 69.5t75 122.5t37.5 169.5t10.5 225q0 126 -11 219t-39.5 172.5t-76 128.5t-122.5 76.5t-177 27.5q-103 0 -177.5 -27t-122 -76t-75.5 -129t-38.5 -172.5t-10.5 -219.5zM338 1776q11 13 29 32t64 50.5 t81 31.5q41 0 110 -28t132 -56t88 -28q18 0 51.5 23.5t57.5 46.5l24 24l31 -92q-10 -13 -26 -31.5t-59 -50t-77 -31.5q-49 0 -175 58.5t-157 58.5q-20 0 -56 -26t-62 -52l-25 -25z" />
<glyph unicode="&#xd6;" horiz-adv-x="1355" d="M123 705q0 147 15.5 258t54 204t101 152.5t158.5 92t226 32.5t226 -32.5t159.5 -91.5t101.5 -152t54 -204.5t16 -258.5q0 -152 -15.5 -263.5t-53.5 -202t-102 -146t-159.5 -84.5t-226.5 -29q-163 0 -272 45.5t-171 141t-87 224t-25 314.5zM254 705q0 -129 10 -219.5 t37 -168.5t74.5 -124.5t122.5 -72.5t180 -26q106 0 180.5 24.5t122.5 69.5t75 122.5t37.5 169.5t10.5 225q0 126 -11 219t-39.5 172.5t-76 128.5t-122.5 76.5t-177 27.5q-103 0 -177.5 -27t-122 -76t-75.5 -129t-38.5 -172.5t-10.5 -219.5zM414 1677v164h121v-164h-121z M825 1677v164h119v-164h-119z" />
<glyph unicode="&#xd7;" d="M154 174l342 340l-342 338l79 82l340 -344l340 344l80 -80l-344 -340l344 -340l-80 -82l-340 344l-340 -342z" />
<glyph unicode="&#xd8;" horiz-adv-x="1355" d="M123 705q0 147 15.5 258t54 204t101 152.5t158.5 92t226 32.5q162 0 272 -49l111 235l96 -39l-119 -252q106 -86 151.5 -242.5t45.5 -391.5q0 -152 -15.5 -263.5t-53.5 -202t-102 -146t-159.5 -84.5t-226.5 -29q-150 0 -256 38l-117 -251l-96 43l121 258 q-114 81 -160.5 236.5t-46.5 400.5zM254 705q0 -201 28 -326t101 -195l516 1100q-88 45 -221 45q-103 0 -177.5 -27t-122 -76t-75.5 -129t-38.5 -172.5t-10.5 -219.5zM473 127q79 -33 205 -33q106 0 180.5 24.5t122.5 69.5t75 122.5t37.5 169.5t10.5 225q0 186 -27.5 313 t-93.5 201z" />
<glyph unicode="&#xd9;" horiz-adv-x="1314" d="M170 418v1005h125v-1005q0 -171 90.5 -247.5t263.5 -76.5q184 0 276.5 75.5t92.5 248.5v1005h127v-1005q0 -231 -125 -334.5t-371 -103.5q-235 0 -357 104t-122 334zM412 1790l45 111l424 -203l-41 -88z" />
<glyph unicode="&#xda;" horiz-adv-x="1314" d="M170 418v1005h125v-1005q0 -171 90.5 -247.5t263.5 -76.5q184 0 276.5 75.5t92.5 248.5v1005h127v-1005q0 -231 -125 -334.5t-371 -103.5q-235 0 -357 104t-122 334zM420 1698l424 203l45 -111l-428 -180z" />
<glyph unicode="&#xdb;" horiz-adv-x="1314" d="M170 418v1005h125v-1005q0 -171 90.5 -247.5t263.5 -76.5q184 0 276.5 75.5t92.5 248.5v1005h127v-1005q0 -231 -125 -334.5t-371 -103.5q-235 0 -357 104t-122 334zM328 1634l274 269h107l274 -269h-141l-185 176l-186 -176h-143z" />
<glyph unicode="&#xdc;" horiz-adv-x="1314" d="M170 418v1005h125v-1005q0 -171 90.5 -247.5t263.5 -76.5q184 0 276.5 75.5t92.5 248.5v1005h127v-1005q0 -231 -125 -334.5t-371 -103.5q-235 0 -357 104t-122 334zM391 1677v164h121v-164h-121zM803 1677v164h119v-164h-119z" />
<glyph unicode="&#xdd;" horiz-adv-x="1093" d="M27 1423h141l379 -690l377 690h143l-457 -821v-602h-127v602zM358 1698l424 203l45 -111l-428 -180z" />
<glyph unicode="&#xde;" horiz-adv-x="1228" d="M178 0v1427h127v-237h393q228 0 335.5 -109t107.5 -338q0 -233 -109.5 -359t-333.5 -126h-393v-258h-127zM305 379h393q161 0 237.5 95t76.5 269q0 170 -74.5 249t-239.5 79h-393v-692z" />
<glyph unicode="&#xdf;" horiz-adv-x="1155" d="M154 0v1128q0 207 88 289t293 82t291.5 -67.5t86.5 -221.5q0 -108 -36.5 -167.5t-122.5 -96.5q-76 -36 -99.5 -54.5t-23.5 -47.5q0 -33 34.5 -59.5t143.5 -82.5q155 -77 211.5 -143.5t56.5 -189.5q0 -209 -93 -299t-316 -90q-43 0 -107 6.5t-107 13.5l-42 6l6 107 q167 -21 241 -21q161 0 225 62.5t64 197.5q0 93 -45 141.5t-186 118.5q-127 63 -170 107.5t-43 116.5q0 67 37 104.5t121 75.5q71 33 96.5 74t25.5 114q0 101 -54 141.5t-195 40.5q-73 0 -119 -11.5t-79.5 -42.5t-48 -85t-14.5 -139v-1108h-120z" />
<glyph unicode="&#xe0;" horiz-adv-x="1021" d="M88 289q0 141 72.5 212.5t228.5 86.5l348 35v96q0 114 -49.5 164.5t-150.5 50.5q-65 0 -162 -8t-161 -16l-64 -7l-7 98q226 43 398 43q165 0 241 -80t76 -245v-549q7 -75 133 -90l-6 -98q-158 0 -231 81q-22 -9 -59 -23t-138.5 -37t-187.5 -23q-136 0 -208.5 78.5 t-72.5 230.5zM215 291q0 -99 43 -153t127 -54q74 0 162 18t139 36l51 18v370l-334 -34q-101 -9 -144.5 -57.5t-43.5 -143.5zM256 1403l45 106l424 -198l-39 -86z" />
<glyph unicode="&#xe1;" horiz-adv-x="1021" d="M88 289q0 141 72.5 212.5t228.5 86.5l348 35v96q0 114 -49.5 164.5t-150.5 50.5q-65 0 -162 -8t-161 -16l-64 -7l-7 98q226 43 398 43q165 0 241 -80t76 -245v-549q7 -75 133 -90l-6 -98q-158 0 -231 81q-22 -9 -59 -23t-138.5 -37t-187.5 -23q-136 0 -208.5 78.5 t-72.5 230.5zM215 291q0 -99 43 -153t127 -54q74 0 162 18t139 36l51 18v370l-334 -34q-101 -9 -144.5 -57.5t-43.5 -143.5zM252 1311l424 198l45 -106l-430 -178z" />
<glyph unicode="&#xe2;" horiz-adv-x="1021" d="M88 289q0 141 72.5 212.5t228.5 86.5l348 35v96q0 114 -49.5 164.5t-150.5 50.5q-65 0 -162 -8t-161 -16l-64 -7l-7 98q226 43 398 43q165 0 241 -80t76 -245v-549q7 -75 133 -90l-6 -98q-158 0 -231 81q-22 -9 -59 -23t-138.5 -37t-187.5 -23q-136 0 -208.5 78.5 t-72.5 230.5zM201 1219l250 280h86l251 -280h-129l-163 188l-166 -188h-129zM215 291q0 -99 43 -153t127 -54q74 0 162 18t139 36l51 18v370l-334 -34q-101 -9 -144.5 -57.5t-43.5 -143.5z" />
<glyph unicode="&#xe3;" horiz-adv-x="1021" d="M88 289q0 141 72.5 212.5t228.5 86.5l348 35v96q0 114 -49.5 164.5t-150.5 50.5q-65 0 -162 -8t-161 -16l-64 -7l-7 98q226 43 398 43q165 0 241 -80t76 -245v-549q7 -75 133 -90l-6 -98q-158 0 -231 81q-22 -9 -59 -23t-138.5 -37t-187.5 -23q-136 0 -208.5 78.5 t-72.5 230.5zM168 1366q4 4 11.5 11t29 24.5t42.5 31t48 24.5t49 11q43 0 152.5 -49t138.5 -49q18 0 52 20t59 40l24 20l29 -86q-10 -11 -27.5 -27t-61.5 -42.5t-77 -26.5q-43 0 -151.5 50t-139.5 50q-21 0 -57.5 -21t-62.5 -42l-27 -21zM215 291q0 -99 43 -153t127 -54 q74 0 162 18t139 36l51 18v370l-334 -34q-101 -9 -144.5 -57.5t-43.5 -143.5z" />
<glyph unicode="&#xe4;" horiz-adv-x="1021" d="M88 289q0 141 72.5 212.5t228.5 86.5l348 35v96q0 114 -49.5 164.5t-150.5 50.5q-65 0 -162 -8t-161 -16l-64 -7l-7 98q226 43 398 43q165 0 241 -80t76 -245v-549q7 -75 133 -90l-6 -98q-158 0 -231 81q-22 -9 -59 -23t-138.5 -37t-187.5 -23q-136 0 -208.5 78.5 t-72.5 230.5zM215 291q0 -99 43 -153t127 -54q74 0 162 18t139 36l51 18v370l-334 -34q-101 -9 -144.5 -57.5t-43.5 -143.5zM236 1284v164h120v-164h-120zM639 1284v164h119v-164h-119z" />
<glyph unicode="&#xe5;" horiz-adv-x="1021" d="M88 289q0 141 72.5 212.5t228.5 86.5l348 35v96q0 114 -49.5 164.5t-150.5 50.5q-65 0 -162 -8t-161 -16l-64 -7l-7 98q226 43 398 43q165 0 241 -80t76 -245v-549q7 -75 133 -90l-6 -98q-158 0 -231 81q-22 -9 -59 -23t-138.5 -37t-187.5 -23q-136 0 -208.5 78.5 t-72.5 230.5zM215 291q0 -99 43 -153t127 -54q74 0 162 18t139 36l51 18v370l-334 -34q-101 -9 -144.5 -57.5t-43.5 -143.5zM311 1325q0 86 59.5 145.5t147.5 59.5q86 0 145.5 -59.5t59.5 -145.5q0 -88 -59.5 -147.5t-145.5 -59.5q-88 0 -147.5 59.5t-59.5 147.5zM399 1325 q0 -51 34 -87t85 -36q49 0 83 36t34 87q0 50 -34 84.5t-83 34.5q-51 0 -85 -34.5t-34 -84.5z" />
<glyph unicode="&#xe6;" horiz-adv-x="1656" d="M88 289q0 68 15 117t41.5 81.5t74.5 54t103.5 33.5t138.5 21l276 27v92q0 211 -196 211q-68 0 -165 -5t-160 -11l-64 -5l-5 111q238 26 398 26q221 0 278 -165q101 165 334 165q203 0 303.5 -115t100.5 -368l-7 -98h-696q2 -189 66.5 -279t220.5 -90q67 0 160 5t153 9 l60 5l4 -103q-229 -28 -389 -28q-205 0 -299 114l-70 -31q-27 -12 -67 -26.5t-141.5 -35.5t-195.5 -21q-134 0 -203 78.5t-69 230.5zM215 291q0 -99 42 -151t118 -52q74 0 174 21t149 37t82 28q-47 112 -47 346l-330 -31q-99 -9 -143.5 -55.5t-44.5 -142.5zM858 563h578 q0 199 -67 285t-212 86q-299 0 -299 -371z" />
<glyph unicode="&#xe7;" horiz-adv-x="886" d="M111 530q0 280 97 397t327 117q39 0 105.5 -6.5t113.5 -13.5l47 -6l-6 -105q-162 21 -240 21q-182 0 -249.5 -89.5t-67.5 -314.5q0 -103 7.5 -170.5t27 -123t55.5 -85.5t91 -45.5t136 -15.5q35 0 96 5t105 9l43 5l4 -105q-183 -24 -271 -24h-28v-86q119 0 171 -32 t52 -122q0 -88 -48.5 -130t-133.5 -42q-40 0 -83 3t-66 6l-23 3l4 82q84 -6 145 -6q92 0 92 84q0 76 -92 76h-96v170q-180 23 -247.5 146t-67.5 398z" />
<glyph unicode="&#xe8;" horiz-adv-x="1032" d="M109 508q0 536 421 536q202 0 303 -116t101 -369l-4 -98h-697q0 -189 64.5 -280t220.5 -91q67 0 160.5 5t153.5 9l61 5l4 -101q-231 -28 -391 -28q-113 1 -190.5 34.5t-122.5 102.5t-64.5 163.5t-19.5 227.5zM233 563h578q0 203 -67 289t-214 86q-145 0 -221 -89 t-76 -286zM252 1405l45 106l424 -198l-39 -86z" />
<glyph unicode="&#xe9;" horiz-adv-x="1032" d="M109 508q0 536 421 536q202 0 303 -116t101 -369l-4 -98h-697q0 -189 64.5 -280t220.5 -91q67 0 160.5 5t153.5 9l61 5l4 -101q-231 -28 -391 -28q-113 1 -190.5 34.5t-122.5 102.5t-64.5 163.5t-19.5 227.5zM233 563h578q0 203 -67 289t-214 86q-145 0 -221 -89 t-76 -286zM315 1311l424 198l45 -106l-430 -178z" />
<glyph unicode="&#xea;" horiz-adv-x="1032" d="M109 508q0 536 421 536q202 0 303 -116t101 -369l-4 -98h-697q0 -189 64.5 -280t220.5 -91q67 0 160.5 5t153.5 9l61 5l4 -101q-231 -28 -391 -28q-113 1 -190.5 34.5t-122.5 102.5t-64.5 163.5t-19.5 227.5zM233 563h578q0 203 -67 289t-214 86q-145 0 -221 -89 t-76 -286zM242 1219l250 280h86l251 -280h-129l-163 188l-166 -188h-129z" />
<glyph unicode="&#xeb;" horiz-adv-x="1032" d="M109 508q0 536 421 536q202 0 303 -116t101 -369l-4 -98h-697q0 -189 64.5 -280t220.5 -91q67 0 160.5 5t153.5 9l61 5l4 -101q-231 -28 -391 -28q-113 1 -190.5 34.5t-122.5 102.5t-64.5 163.5t-19.5 227.5zM233 563h578q0 203 -67 289t-214 86q-145 0 -221 -89 t-76 -286zM262 1284v164h121v-164h-121zM666 1284v164h118v-164h-118z" />
<glyph unicode="&#xec;" horiz-adv-x="428" d="M-123 1403l45 106l424 -198l-39 -86zM154 0v1024h120v-1024h-120z" />
<glyph unicode="&#xed;" horiz-adv-x="428" d="M82 1311l424 198l45 -106l-430 -178zM154 0h120v1024h-120v-1024z" />
<glyph unicode="&#xee;" horiz-adv-x="428" d="M-82 1219l250 280h86l252 -280h-129l-164 188l-166 -188h-129zM154 0h120v1024h-120v-1024z" />
<glyph unicode="&#xef;" horiz-adv-x="428" d="M-55 1284v164h121v-164h-121zM154 0h120v1024h-120v-1024zM348 1284v164h119v-164h-119z" />
<glyph unicode="&#xf0;" horiz-adv-x="1112" d="M88 438q0 199 113 319t313 120q68 0 157 -20t144 -40l55 -20q-13 287 -305 460l-246 -163l-59 80l205 137q-112 51 -262 92l28 96q194 -47 338 -117l209 140l60 -80l-170 -115q331 -207 331 -604q0 -272 -47.5 -433.5t-147 -234.5t-265.5 -73q-214 0 -332.5 117.5 t-118.5 338.5zM217 438q0 -165 82.5 -254.5t239.5 -89.5q122 0 192.5 54.5t104.5 182t36 353.5q-23 9 -61 22.5t-132 35.5t-159 22q-142 0 -222.5 -91t-80.5 -235z" />
<glyph unicode="&#xf1;" horiz-adv-x="1091" d="M154 0h120v848q18 10 48 24t113.5 38t154.5 24q52 0 89 -8.5t63.5 -29.5t43 -49.5t25.5 -77t12.5 -103t3.5 -134.5v-532h123v539q0 118 -9 197.5t-30.5 141.5t-61 97t-98 52t-143.5 17q-72 0 -155.5 -24t-130.5 -48l-48 -24v76h-120v-1024zM248 1366q4 4 11.5 11t29 24.5 t42.5 31t48 24.5t49 11q43 0 152.5 -49t138.5 -49q18 0 52 20t59 40l24 20l29 -86q-10 -11 -27.5 -27t-61.5 -42.5t-77 -26.5q-43 0 -151.5 50t-139.5 50q-21 0 -57.5 -21t-62.5 -42l-27 -21z" />
<glyph unicode="&#xf2;" horiz-adv-x="1079" d="M111 526q0 275 97.5 396.5t332.5 121.5q233 0 330.5 -121.5t97.5 -396.5q0 -151 -19 -249.5t-67 -167.5t-131 -99t-211 -30q-129 0 -212.5 30t-131.5 99t-67 167t-19 250zM238 526q0 -102 6 -167t24 -121.5t51.5 -86.5t87.5 -46.5t134 -16.5q66 0 114 10t82 34.5 t54.5 56.5t32.5 85t16 110.5t4 141.5q0 232 -64.5 321t-238.5 89q-175 0 -239 -88.5t-64 -321.5zM299 1403l45 106l424 -198l-39 -86z" />
<glyph unicode="&#xf3;" horiz-adv-x="1079" d="M111 526q0 -152 19 -250t67 -167t131.5 -99t212.5 -30q128 0 211 30t131 99t67 167.5t19 249.5q0 275 -97.5 396.5t-330.5 121.5q-235 0 -332.5 -121.5t-97.5 -396.5zM238 526q0 233 64 321.5t239 88.5q174 0 238.5 -89t64.5 -321q0 -84 -4 -141.5t-16 -110.5t-32.5 -85 t-54.5 -56.5t-82 -34.5t-114 -10q-80 0 -134 16.5t-87.5 46.5t-51.5 86.5t-24 121.5t-6 167zM334 1311l424 198l45 -106l-430 -178z" />
<glyph unicode="&#xf4;" horiz-adv-x="1079" d="M111 526q0 -152 19 -250t67 -167t131.5 -99t212.5 -30q128 0 211 30t131 99t67 167.5t19 249.5q0 275 -97.5 396.5t-330.5 121.5q-235 0 -332.5 -121.5t-97.5 -396.5zM238 526q0 233 64 321.5t239 88.5q174 0 238.5 -89t64.5 -321q0 -84 -4 -141.5t-16 -110.5t-32.5 -85 t-54.5 -56.5t-82 -34.5t-114 -10q-80 0 -134 16.5t-87.5 46.5t-51.5 86.5t-24 121.5t-6 167zM244 1219l250 280h86l251 -280h-129l-163 188l-166 -188h-129z" />
<glyph unicode="&#xf5;" horiz-adv-x="1079" d="M111 526q0 -152 19 -250t67 -167t131.5 -99t212.5 -30q128 0 211 30t131 99t67 167.5t19 249.5q0 275 -97.5 396.5t-330.5 121.5q-235 0 -332.5 -121.5t-97.5 -396.5zM221 1366q4 4 11.5 11t29 24.5t42.5 31t48 24.5t49 11q43 0 152.5 -49t138.5 -49q18 0 52 20t58 40 l25 20l29 -86q-10 -11 -27.5 -27t-61.5 -42.5t-77 -26.5q-43 0 -151.5 50t-139.5 50q-21 0 -57.5 -21t-63.5 -42l-26 -21zM238 526q0 233 64 321.5t239 88.5q174 0 238.5 -89t64.5 -321q0 -84 -4 -141.5t-16 -110.5t-32.5 -85t-54.5 -56.5t-82 -34.5t-114 -10 q-80 0 -134 16.5t-87.5 46.5t-51.5 86.5t-24 121.5t-6 167z" />
<glyph unicode="&#xf6;" horiz-adv-x="1079" d="M111 526q0 -152 19 -250t67 -167t131.5 -99t212.5 -30q128 0 211 30t131 99t67 167.5t19 249.5q0 275 -97.5 396.5t-330.5 121.5q-235 0 -332.5 -121.5t-97.5 -396.5zM238 526q0 233 64 321.5t239 88.5q174 0 238.5 -89t64.5 -321q0 -84 -4 -141.5t-16 -110.5t-32.5 -85 t-54.5 -56.5t-82 -34.5t-114 -10q-80 0 -134 16.5t-87.5 46.5t-51.5 86.5t-24 121.5t-6 167zM270 1284v164h121v-164h-121zM674 1284v164h119v-164h-119z" />
<glyph unicode="&#xf7;" d="M199 539v120h749v-120h-749zM426 686v184h295v-184h-295zM510 68v190h125v-190h-125z" />
<glyph unicode="&#xf8;" horiz-adv-x="1079" d="M111 526q0 275 97.5 396.5t332.5 121.5q91 0 159 -18l88 213l89 -31l-91 -215q97 -53 140 -166.5t43 -300.5q0 -151 -19 -249.5t-67 -167.5t-131 -99t-211 -30q-90 0 -162 16l-92 -227l-86 30l90 228q-100 52 -140 170.5t-40 328.5zM238 526q0 -171 20 -261.5t82 -131.5 l319 789q-46 14 -118 14q-175 0 -239 -88.5t-64 -321.5zM420 100q49 -12 121 -12q66 0 114 10t82 34.5t54.5 56.5t32.5 85t16 110.5t4 141.5q0 145 -23.5 231t-79.5 128z" />
<glyph unicode="&#xf9;" horiz-adv-x="1075" d="M143 489v535h121v-532q0 -98 5 -159.5t19 -112.5t40.5 -77t68 -39.5t103.5 -13.5q72 0 147 21.5t115 42.5l39 22v848h121v-1024h-121v76q-18 -11 -48.5 -27t-114 -42.5t-153.5 -26.5q-72 0 -124.5 10.5t-91 36.5t-62.5 63t-38.5 97t-20 131t-5.5 171zM242 1403l45 106 l424 -198l-39 -86z" />
<glyph unicode="&#xfa;" horiz-adv-x="1075" d="M143 489q0 -100 5.5 -171t20 -131t38.5 -97t62.5 -63t91 -36.5t124.5 -10.5q70 0 149 24t123 48l44 24v-76h121v1024h-121v-848q-6 -3 -16 -9t-43 -21t-66.5 -26t-82 -20.5t-93.5 -9.5q-62 0 -103.5 13.5t-68 39.5t-40.5 77t-19 112.5t-5 159.5v532h-121v-535zM330 1311 l424 198l45 -106l-430 -178z" />
<glyph unicode="&#xfb;" horiz-adv-x="1075" d="M143 489q0 -100 5.5 -171t20 -131t38.5 -97t62.5 -63t91 -36.5t124.5 -10.5q70 0 149 24t123 48l44 24v-76h121v1024h-121v-848q-6 -3 -16 -9t-43 -21t-66.5 -26t-82 -20.5t-93.5 -9.5q-62 0 -103.5 13.5t-68 39.5t-40.5 77t-19 112.5t-5 159.5v532h-121v-535zM227 1219 l250 280h86l252 -280h-129l-164 188l-166 -188h-129z" />
<glyph unicode="&#xfc;" horiz-adv-x="1075" d="M143 489q0 -100 5.5 -171t20 -131t38.5 -97t62.5 -63t91 -36.5t124.5 -10.5q70 0 149 24t123 48l44 24v-76h121v1024h-121v-848q-6 -3 -16 -9t-43 -21t-66.5 -26t-82 -20.5t-93.5 -9.5q-62 0 -103.5 13.5t-68 39.5t-40.5 77t-19 112.5t-5 159.5v532h-121v-535zM283 1284 v164h120v-164h-120zM686 1284v164h119v-164h-119z" />
<glyph unicode="&#xfd;" horiz-adv-x="978" d="M55 1024h125l273 -918h73l275 918h125l-443 -1485h-123l138 461h-142zM330 1311l424 198l45 -106l-430 -178z" />
<glyph unicode="&#xfe;" horiz-adv-x="1069" d="M154 -461v1940h120v-510q18 8 49.5 20.5t116 33.5t154.5 21q205 0 284.5 -117t79.5 -397q0 -153 -21.5 -253.5t-75 -169t-142.5 -98t-225 -29.5q-36 0 -91 3.5t-92 6.5l-37 4v-455h-120zM274 100q143 -12 211 -12q89 0 151 18t101 50t60.5 89t29 122t7.5 161 q0 219 -52.5 312.5t-195.5 93.5q-70 0 -148 -17.5t-121 -34.5l-43 -18v-764z" />
<glyph unicode="&#xff;" horiz-adv-x="978" d="M55 1024h125l273 -918h73l275 918h125l-443 -1485h-123l138 461h-142zM225 1284v164h121v-164h-121zM629 1284v164h119v-164h-119z" />
<glyph unicode="&#x152;" horiz-adv-x="1904" d="M123 707q0 190 25.5 322t87 229t168 143.5t264.5 46.5q168 0 301 -21h837v-122h-712v-512h589v-123h-589v-547h712v-125h-835q-189 -18 -303 -18q-130 0 -224.5 30.5t-156.5 87t-98.5 148.5t-51 201.5t-14.5 259.5zM254 709q0 -108 7 -188t24.5 -151t48 -118.5 t77.5 -82.5t113.5 -51t155.5 -16q85 0 289 17v1186q-264 22 -291 22q-103 0 -177 -25.5t-122 -72t-75.5 -125t-38.5 -171.5t-11 -224z" />
<glyph unicode="&#x153;" horiz-adv-x="1767" d="M111 528q0 274 99 394t333 120q143 0 232 -53t134 -172q50 121 140 173t217 52q202 0 302.5 -115t100.5 -368l-4 -98h-696q0 -189 64 -279t220 -90q67 0 160.5 5t154.5 9l60 5l4 -103q-231 -28 -391 -28q-131 0 -212.5 49t-125.5 149q-41 -104 -126 -151t-234 -47 q-129 0 -212.5 30t-132.5 99.5t-68 168.5t-19 250zM238 528q0 -100 6.5 -165.5t25 -122t52.5 -87t88 -47t133 -16.5t133 18t87 50t51 89t24 120t6 159q0 218 -71.5 312t-229.5 94q-174 0 -239.5 -87.5t-65.5 -316.5zM969 563h577q0 200 -66.5 285.5t-213.5 85.5 q-297 0 -297 -371z" />
<glyph unicode="&#x178;" horiz-adv-x="1093" d="M27 1423h141l379 -690l377 690h143l-457 -821v-602h-127v602zM279 1677v164h120v-164h-120zM690 1677v164h119v-164h-119z" />
<glyph unicode="&#x2c6;" horiz-adv-x="466" d="M-35 1219l250 280h86l252 -280h-129l-164 188l-166 -188h-129z" />
<glyph unicode="&#x2dc;" horiz-adv-x="466" d="M-66 1366q12 11 31 28t67 45.5t83 28.5q43 0 152.5 -49t138.5 -49q18 0 52 20t58 40l25 20l28 -86q-10 -11 -27.5 -27t-61.5 -42.5t-77 -26.5q-43 0 -151 50t-139 50q-21 0 -58 -21t-63 -42l-27 -21z" />
<glyph unicode="&#x2000;" horiz-adv-x="951" />
<glyph unicode="&#x2001;" horiz-adv-x="1903" />
<glyph unicode="&#x2002;" horiz-adv-x="951" />
<glyph unicode="&#x2003;" horiz-adv-x="1903" />
<glyph unicode="&#x2004;" horiz-adv-x="634" />
<glyph unicode="&#x2005;" horiz-adv-x="475" />
<glyph unicode="&#x2006;" horiz-adv-x="317" />
<glyph unicode="&#x2007;" horiz-adv-x="317" />
<glyph unicode="&#x2008;" horiz-adv-x="237" />
<glyph unicode="&#x2009;" horiz-adv-x="380" />
<glyph unicode="&#x200a;" horiz-adv-x="105" />
<glyph unicode="&#x2010;" horiz-adv-x="911" d="M145 510v115h623v-115h-623z" />
<glyph unicode="&#x2011;" horiz-adv-x="911" d="M145 510v115h623v-115h-623z" />
<glyph unicode="&#x2012;" horiz-adv-x="911" d="M145 510v115h623v-115h-623z" />
<glyph unicode="&#x2013;" horiz-adv-x="1302" d="M139 494v110h1024v-110h-1024z" />
<glyph unicode="&#x2014;" horiz-adv-x="2326" d="M139 494v110h2048v-110h-2048z" />
<glyph unicode="&#x2018;" horiz-adv-x="428" d="M113 1032l118 432h99l-86 -432h-131z" />
<glyph unicode="&#x2019;" horiz-adv-x="423" d="M117 1030l86 432h131l-119 -432h-98z" />
<glyph unicode="&#x201a;" horiz-adv-x="425" d="M106 -100l60 215h49l-43 -215h-66z" />
<glyph unicode="&#x201c;" horiz-adv-x="727" d="M113 1032l118 432h99l-86 -432h-131zM412 1032l118 432h99l-86 -432h-131z" />
<glyph unicode="&#x201d;" horiz-adv-x="739" d="M117 1032l86 432h131l-119 -432h-98zM432 1032l86 432h131l-119 -432h-98z" />
<glyph unicode="&#x201e;" horiz-adv-x="702" d="M59 -205l119 432h98l-86 -432h-131zM352 -205l119 432h98l-86 -432h-131z" />
<glyph unicode="&#x2022;" horiz-adv-x="978" d="M233 219v590h512v-590h-512z" />
<glyph unicode="&#x2026;" horiz-adv-x="1464" d="M143 0v207h136v-207h-136zM664 0v207h135v-207h-135zM1186 0v207h135v-207h-135z" />
<glyph unicode="&#x202f;" horiz-adv-x="380" />
<glyph unicode="&#x2039;" horiz-adv-x="608" d="M94 459v104l371 283v-129l-264 -203l264 -223v-131z" />
<glyph unicode="&#x203a;" horiz-adv-x="608" d="M143 164v133l263 223l-263 201v129l371 -283v-104z" />
<glyph unicode="&#x205f;" horiz-adv-x="475" />
<glyph unicode="&#x20ac;" d="M61 471v104h129q-2 31 -2 97q0 75 2 112h-129v105h136q11 121 40 206.5t84.5 150t144 95.5t214.5 31q164 0 364 -41l-6 -104q-194 37 -350 37q-95 0 -162 -23.5t-108.5 -73t-63.5 -116t-32 -162.5h612v-105h-619q-2 -37 -2 -112q0 -66 2 -97h619v-104h-615 q9 -98 31 -166.5t64.5 -118t110.5 -73t165 -23.5q155 0 348 37l6 -107q-209 -40 -364 -40q-125 0 -213.5 31.5t-144 96.5t-85 152.5t-40.5 210.5h-136z" />
<glyph unicode="&#x2122;" horiz-adv-x="1396" d="M193 1196v88h409v-88h-147v-516h-97v516h-165zM670 678v606h129l149 -453l158 453h129v-606h-92v485l-152 -458h-82l-149 458v-485h-90z" />
<glyph unicode="&#xe000;" horiz-adv-x="1024" d="M0 0v1024h1024v-1024h-1024z" />
</font>
</defs>
</svg>
